(Classical oratorio) Handel - Samson (1968) / Гендель - Самсон [3CD\'s] (Helen Donath, Sheila Armstrong, Norma Procter, Alexander Young / Munchener Bach-Chor, Munchener Bach-Orchester, Karl Richter) - 1996, FLAC (image+.cue) lossless 

Цитировать
Handel - Samson / Гендель - Самсон
Жанр: Classical oratorio
Страна-производитель диска: Made in Germany
Год издания диска: 1995 или 1996
Издатель (лейбл): ARCHIV PRODUKTION
Номер по каталогу: 453 245-2
Дата записи: 1968
Аудиокодек: FLAC
Тип рипа: image+.cue
Битрейт аудио: lossless
Продолжительность: 75:16 + 76:57 + 54:56 / 03:26:13
Источник: релизер
сайт-источник/ник/другое: makdelart, подарок; Caterina Sforza - упоительная работа с cue
Наличие сканов в содержимом раздачи: да, полный авторский буклет jpeg, 81 страница + libretto pdf

Треклист

CD1

1. Symfony - Andante - Allegro - Allegro - Menuet 9mn282. Recitative: This day, a solemn feast" 0mn393. Chorus: "Awake the trumpet's lofty sound!" 2mn044. Air: "Ye men of Gaza" 4mn115. Chorus: "Awake the trumpet's lofty sound!" 0mn326. Air: "Loud as the thunder's awful voice" 3mn037. Air: "Then free from sorrow" 2mn428. Chorus: "Awake the trumpet's lofty sound!" 0mn339. Recitative: "Why by an angel" 0mn3910. Air: "Torments, alas!" 5mn1011. Recitative: "Oh change beyond report" 1mn0712. Air: "Oh mirror of our fickle state!" 3mn5613. Recitative: "Whom have I to complain of but myself" 1mn3414. Air: "Total eclipse!" 4mn3015. Chorus: "Oh first created beam!" 3mn1416. Recitative: "Ye see, my friends" 1mn0217. Recitative: "Brethren ond men of Dan" 0mn4118. Recitative: "Oh miserable change!" 1mn0419. Recitative: "Oh ever failing trust" 0mn2320. Air: "God of our fathers" 3mn4321. Recitative: "The good we wish for" 1mn1222. Air: "Thy glorious deeds inspir'd my tongue" 4mn3323. Recitative: "Justly these evils have befall'n thy son" 1mn2324. Air: "Why does the God of Israel sleep?" 5mn0025. Recitative: "There lies our hope!" 0mn2526. Chorus: "Then shall they know" 2mn1727. Recitative: "For thee, my dearest son" 1mn5528. Air: Then long eternity shall greet your bliss" 1mn0729. Air: "Joys that are pure" 5mn0730. Chorus: "Then round about the starry throne" 2mn02

CD2

1. Recitative: "Trust yet in God!" 0mn232. Recitative: "My evils hopeless are!" 0mn553. Air: "Return, oh God of hosts!" 5mn504. Air and Chorus: "To dust his glory they would tread" 4mn205. Recitative: "But who is this?" 1mn146. Recitative: "With doubtful feet" 1mn457. Air: "With plaintive notes" 7mn128. Recitative: "Did Love constrain thee?" 0mn379. Air: "Your charms to ruin led the way" 3mn4110. Recitative: "Forgive what's done" 0mn4111. Duet: "My faith and truth" 5mn3912. Chorus: "Her faith and truth" 1mn2313. Air, 1st verse:"To fleeting pleasures make your court" 2mn2514. Chorus: "Her faith and truth" 1mn2615. Air, 2nd verse: "How charming is domestic ease!" 2mn2616. Chorus: "Her faith and truth" 1mn2517. Recitative: "Ne'er think of that!" 1mn4518. Duet: "Traitor to love!" 1mn4619. Recitative: "She's gone!" 0mn1820. Air: "It is not virtue" 4mn4821. Recitative: "Favour'd of heaven is he" 0mn3122. Chorus: To man God's universal law" 2mn2523. Recitative: "No words of peace" 1mn5324. Air: "Honour arms scorn such a foe" 5mn2625. Recitative: "Cam'st thou for this" 0mn3626. Duet: "Go, baffled coward, go" 2mn3227. Recitative: "Here lies the proof" 1mn0428. Chorus: "Hear, Jacob's God" 3mn3829. Recitative: "Dagon, arise!" 0mn1530. Air: "To song and dance we give the day" 3mn2931. Chorus: "To song and dance we give the day" 1mn5732. Double Chorus: "Fix'd in this everlasting seat" 3mn12

CD3

1. Recitative: "More trouble is behind" 1mn332. Air: "Presuming slave, to move their wrath!" 2mn403. Recitative: "Reflect then, Samson" 0mn494. Chorus: "With thunder arm'd, great God, arise!" 3mn065. Recitative: "Be of good courage" 2mn596. Air: "Thus when the sun from's wat'ry bed" 4mn007. Air: "With might endued above the sons of men" 0mn298. Air: "The Holy One of Israel" - Chorus: "To fame im- mortal go" 2mn159. Recitative: "Old Manoa" 0mn3210. Air and Chorus: "Great Dagon has subdued our foe" 3mn5111. Recitative: "What noise of joy was that?" 1mn0012. Air: "How willing my paternal love" 3mn2413. Recitative: "Your hopes of his deliv'ry" 0mn5014. Chorus: "Hear us, our God!" 1mn2615. Recitative: "Noise call you this?" 0mn4716. Recitative: "Where shall I run" 2mn5417. Air: Ye sons of Irael, now lament" - Chorus: "Weep, Israel, weep" 4mn2918. Recitative: "Proceed we hence" 0mn5919. Dead March 2mn5420. Recitative: "The body comes" 1mn0621. Solo and Chorus: "Glorious hero" - Accompagnato: "The virgins too shall" - Chorus: " 6mn2022. Recitative: "Come, come! no time for lamentation now" 0mn2423. Air: "Let the bright Seraphim" 3mn1424. Chorus: "Let their celestial concerts all unite" 2mn55

Исполнители

George Frideric Handel (1685-1759)
SAMSONoratorio in the acts HWV 57. Libretto: Newburgh Hamilton after Samson Agonistes and other poems by John Milton
Alexander Young (Samson -tenor-)Martina Arroyo (Dalila -soprano-)Norma Procter (Micah -contralto-)Thomas Stewart (Manoa -bass-)Ezio Flagello (Harapha -bass-)Helen Donath (Israelitish Man/Israelitish Woman/Philistine Woman/Virgin attending on Dalila -soprano-)Sheila Armstrong (Israelitish Man/Israelitish Woman/Philistine Woman/Virgin attending on Dalila -soprano-)Jerry J. Jennings (Israelitish Man/A Philistine/Messenger -tenor-)
Münchener Bach-ChorMünchener Bach-Orchester Soloists: Herbert Segel, Wolfgang Haag - flute; Manfred Clement, Andreas Schwinn - oboe; Hermann Baumann, Werner Meyendorf - horn, Maurice André, Paul Lachenmeier - trumpet; Franz Eder, Lothar Zirkelbach - tromboneContinuo: Kenneth Heath - violincello; Herbert Duft - double bass; Detlev Kühl - bassoon; Elmar Schloter - organ; Kerl Richter, Iwona Fütterer - harpsichord), Karl Richter (conductor)
Recorded at the Herkulessaal, Munich, Oct.-Nov. 1968Audio CD (11 Nov. 1996)CD: 21 April 2015

Лог создания рипа

CD1

Exact Audio Copy V1.3 from 2. September 2016
EAC extraction logfile from 23. April 2018, 14:11
Karl Richter / Handel - Samson (Disc 1)
Used drive : ATAPI iHAS124 F Adapter: 1 ID: 0
Read mode : SecureUtilize accurate stream : YesDefeat audio cache : YesMake use of C2 pointers : No
Read offset correction : 6Overread into Lead-In and Lead-Out : NoFill up missing offset samples with silence : YesDelete leading and trailing silent blocks : NoNull samples used in CRC calculations : YesUsed interface : Native Win32 interface for Win NT & 2000
Used output format : User Defined EncoderSelected bitrate : 1024 kBit/sQuality : HighAdd ID3 tag : NoCommand line compressor : C:\Program Files (x86)\Exact Audio Copy\FLAC\FLAC.EXEAdditional command line options : -8 -V -T "TITLE=%title%" -T "ARTIST=%artist%" -T "ALBUMARTIST=%albumartist%" -T "ALBUM=%albumtitle%" -T "DATE=%year%" -T "TRACKNUMBER=%tracknr%" -T "TRACKTOTAL=%numtracks%" -T "GENRE=%genre%" -T "COMMENT=%comment%" -T "PERFORMER=%albuminterpret%" -T "COMPOSER=%composer%" %source% -o %dest%
TOC of the extracted CD
Track | Start | Length | Start sector | End sector --------------------------------------------------------- 1 | 0:00.32 | 9:28.00 | 32 | 42631 2 | 9:28.32 | 0:39.00 | 42632 | 45556 3 | 10:07.32 | 2:04.00 | 45557 | 54856 4 | 12:11.32 | 4:11.00 | 54857 | 73681 5 | 16:22.32 | 0:32.25 | 73682 | 76106 6 | 16:54.57 | 3:03.25 | 76107 | 89856 7 | 19:58.07 | 2:42.13 | 89857 | 102019 8 | 22:40.20 | 0:33.12 | 102020 | 104506 9 | 23:13.32 | 0:38.48 | 104507 | 107404 10 | 23:52.05 | 5:10.27 | 107405 | 130681 11 | 29:02.32 | 1:07.25 | 130682 | 135731 12 | 30:09.57 | 3:55.50 | 135732 | 153406 13 | 34:05.32 | 1:34.25 | 153407 | 160481 14 | 35:39.57 | 4:29.50 | 160482 | 180706 15 | 40:09.32 | 3:13.58 | 180707 | 195239 16 | 43:23.15 | 1:01.72 | 195240 | 199886 17 | 44:25.12 | 0:40.58 | 199887 | 202944 18 | 45:05.70 | 1:03.52 | 202945 | 207721 19 | 46:09.47 | 0:22.73 | 207722 | 209444 20 | 46:32.45 | 3:42.62 | 209445 | 226156 21 | 50:15.32 | 1:11.45 | 226157 | 231526 22 | 51:27.02 | 4:33.30 | 231527 | 252031 23 | 56:00.32 | 1:22.53 | 252032 | 258234 24 | 57:23.10 | 5:00.00 | 258235 | 280734 25 | 62:23.10 | 0:25.02 | 280735 | 282611 26 | 62:48.12 | 2:16.58 | 282612 | 292869 27 | 65:04.70 | 1:55.37 | 292870 | 301531 28 | 67:00.32 | 1:07.00 | 301532 | 306556 29 | 68:07.32 | 5:07.00 | 306557 | 329581 30 | 73:14.32 | 2:02.00 | 329582 | 338731
Range status and errors
Selected range
Filename C:\EACRip\HANDEL\Handel - Samson (Karl Richter) (1969)\CD1\Handel - Samson (Disc 1) - Karl Richter.wav
Peak level 99.9 % Extraction speed 3.7 X Range quality 100.0 % Test CRC B7851796 Copy CRC B7851796 Copy OK
No errors occurred
AccurateRip summary
Track 1 accurately ripped (confidence 4) [89AF77CB] (AR v2)Track 2 accurately ripped (confidence 5) [10ED705C] (AR v2)Track 3 accurately ripped (confidence 5) [FB8AF794] (AR v2)Track 4 accurately ripped (confidence 5) [A1A87871] (AR v2)Track 5 accurately ripped (confidence 5) [B2C1F058] (AR v2)Track 6 accurately ripped (confidence 5) [92962AA1] (AR v2)Track 7 accurately ripped (confidence 5) [72052329] (AR v2)Track 8 accurately ripped (confidence 5) [4722475B] (AR v2)Track 9 accurately ripped (confidence 5) [25FA160F] (AR v2)Track 10 accurately ripped (confidence 5) [D38C7EF7] (AR v2)Track 11 accurately ripped (confidence 5) [48877739] (AR v2)Track 12 accurately ripped (confidence 5) [CDF1DBAC] (AR v2)Track 13 accurately ripped (confidence 4) [0787DDBD] (AR v2)Track 14 accurately ripped (confidence 5) [B2880D63] (AR v2)Track 15 accurately ripped (confidence 4) [25FD8A05] (AR v2)Track 16 accurately ripped (confidence 4) [F079FD81] (AR v2)Track 17 accurately ripped (confidence 5) [DB293F2C] (AR v2)Track 18 accurately ripped (confidence 5) [E7247D45] (AR v2)Track 19 accurately ripped (confidence 5) [E2B782AB] (AR v2)Track 20 accurately ripped (confidence 5) [E8BE58FA] (AR v2)Track 21 accurately ripped (confidence 5) [DEF97BE9] (AR v2)Track 22 accurately ripped (confidence 5) [E53BEEB0] (AR v2)Track 23 accurately ripped (confidence 5) [5D3A07EB] (AR v2)Track 24 accurately ripped (confidence 5) [A25D168D] (AR v2)Track 25 accurately ripped (confidence 5) [453FC89B] (AR v2)Track 26 accurately ripped (confidence 5) [DCC223A1] (AR v2)Track 27 accurately ripped (confidence 5) [ACF94307] (AR v2)Track 28 accurately ripped (confidence 5) [7553A1F3] (AR v2)Track 29 accurately ripped (confidence 5) [05273AB1] (AR v2)Track 30 accurately ripped (confidence 5) [25F44DA2] (AR v2)
All tracks accurately ripped
End of status report
---- CUETools DB Plugin V2.1.6
[CTDB TOCID: 8Ku.z9mfjBdN1IHSdw7QND1VFNc-] foundSubmit result: 8Ku.z9mfjBdN1IHSdw7QND1VFNc- has been confirmedTrack | CTDB Status 1 | (2/2) Accurately ripped 2 | (2/2) Accurately ripped 3 | (2/2) Accurately ripped 4 | (2/2) Accurately ripped 5 | (2/2) Accurately ripped 6 | (2/2) Accurately ripped 7 | (2/2) Accurately ripped 8 | (2/2) Accurately ripped 9 | (2/2) Accurately ripped 10 | (2/2) Accurately ripped 11 | (2/2) Accurately ripped 12 | (2/2) Accurately ripped 13 | (2/2) Accurately ripped 14 | (2/2) Accurately ripped 15 | (2/2) Accurately ripped 16 | (2/2) Accurately ripped 17 | (2/2) Accurately ripped 18 | (2/2) Accurately ripped 19 | (2/2) Accurately ripped 20 | (2/2) Accurately ripped 21 | (2/2) Accurately ripped 22 | (2/2) Accurately ripped 23 | (2/2) Accurately ripped 24 | (2/2) Accurately ripped 25 | (2/2) Accurately ripped 26 | (2/2) Accurately ripped 27 | (2/2) Accurately ripped 28 | (2/2) Accurately ripped 29 | (2/2) Accurately ripped 30 | (2/2) Accurately ripped
==== Log checksum 8CAE6267194D2056AE8B308C1CC363E8BBFEEFE7396CD59DEF385BBE1E0E0C88 ====

CD2

Exact Audio Copy V1.3 from 2. September 2016
EAC extraction logfile from 23. April 2018, 14:45
Karl Richter / Handel - Samson (Disc 2)
Used drive : ATAPI iHAS124 F Adapter: 1 ID: 0
Read mode : SecureUtilize accurate stream : YesDefeat audio cache : YesMake use of C2 pointers : No
Read offset correction : 6Overread into Lead-In and Lead-Out : NoFill up missing offset samples with silence : YesDelete leading and trailing silent blocks : NoNull samples used in CRC calculations : YesUsed interface : Native Win32 interface for Win NT & 2000
Used output format : User Defined EncoderSelected bitrate : 1024 kBit/sQuality : HighAdd ID3 tag : NoCommand line compressor : C:\Program Files (x86)\Exact Audio Copy\FLAC\FLAC.EXEAdditional command line options : -8 -V -T "TITLE=%title%" -T "ARTIST=%artist%" -T "ALBUMARTIST=%albumartist%" -T "ALBUM=%albumtitle%" -T "DATE=%year%" -T "TRACKNUMBER=%tracknr%" -T "TRACKTOTAL=%numtracks%" -T "GENRE=%genre%" -T "COMMENT=%comment%" -T "PERFORMER=%albuminterpret%" -T "COMPOSER=%composer%" %source% -o %dest%
TOC of the extracted CD
Track | Start | Length | Start sector | End sector --------------------------------------------------------- 1 | 0:00.00 | 0:23.07 | 0 | 1731 2 | 0:23.07 | 0:54.68 | 1732 | 5849 3 | 1:18.00 | 5:49.50 | 5850 | 32074 4 | 7:07.50 | 4:20.25 | 32075 | 51599 5 | 11:28.00 | 1:14.00 | 51600 | 57149 6 | 12:42.00 | 1:45.25 | 57150 | 65049 7 | 14:27.25 | 7:12.00 | 65050 | 97449 8 | 21:39.25 | 0:36.55 | 97450 | 100204 9 | 22:16.05 | 3:40.70 | 100205 | 116774 10 | 25:57.00 | 0:41.37 | 116775 | 119886 11 | 26:38.37 | 5:38.40 | 119887 | 145276 12 | 32:17.02 | 1:22.73 | 145277 | 151499 13 | 33:40.00 | 2:25.00 | 151500 | 162374 14 | 36:05.00 | 1:26.00 | 162375 | 168824 15 | 37:31.00 | 2:26.00 | 168825 | 179774 16 | 39:57.00 | 1:25.00 | 179775 | 186149 17 | 41:22.00 | 1:45.37 | 186150 | 194061 18 | 43:07.37 | 1:45.68 | 194062 | 202004 19 | 44:53.30 | 0:18.25 | 202005 | 203379 20 | 45:11.55 | 4:47.50 | 203380 | 224954 21 | 49:59.30 | 0:31.32 | 224955 | 227311 22 | 50:30.62 | 2:25.00 | 227312 | 238186 23 | 52:55.62 | 1:52.53 | 238187 | 246639 24 | 54:48.40 | 5:26.35 | 246640 | 271124 25 | 60:15.00 | 0:36.10 | 271125 | 273834 26 | 60:51.10 | 2:31.65 | 273835 | 285224 27 | 63:23.00 | 1:03.42 | 285225 | 289991 28 | 64:26.42 | 3:37.38 | 289992 | 306304 29 | 68:04.05 | 0:15.35 | 306305 | 307464 30 | 68:19.40 | 3:29.27 | 307465 | 323166 31 | 71:48.67 | 1:56.45 | 323167 | 331911 32 | 73:45.37 | 3:11.38 | 331912 | 346274
Range status and errors
Selected range
Filename C:\EACRip\HANDEL\Handel - Samson (Karl Richter) (1969)\CD2\Handel - Samson (Disc 2) - Karl Richter.wav
Peak level 97.0 % Extraction speed 9.8 X Range quality 100.0 % Test CRC 4368BEEF Copy CRC 4368BEEF Copy OK
No errors occurred
AccurateRip summary
Track 1 accurately ripped (confidence 4) [359FBF48] (AR v2)Track 2 accurately ripped (confidence 4) [14BB4DAF] (AR v2)Track 3 accurately ripped (confidence 4) [48545195] (AR v2)Track 4 accurately ripped (confidence 4) [5AC75CCE] (AR v2)Track 5 accurately ripped (confidence 4) [726D526A] (AR v2)Track 6 accurately ripped (confidence 4) [FFEC7617] (AR v2)Track 7 accurately ripped (confidence 5) [B520AD2E] (AR v2)Track 8 accurately ripped (confidence 5) [02807A15] (AR v2)Track 9 accurately ripped (confidence 5) [E5BB092A] (AR v2)Track 10 accurately ripped (confidence 5) [5D98E9C7] (AR v2)Track 11 accurately ripped (confidence 5) [0BAA979B] (AR v2)Track 12 accurately ripped (confidence 5) [9F94EA8E] (AR v2)Track 13 accurately ripped (confidence 5) [18C52342] (AR v2)Track 14 accurately ripped (confidence 5) [8E57A859] (AR v2)Track 15 accurately ripped (confidence 5) [5C210558] (AR v2)Track 16 accurately ripped (confidence 5) [4068F74F] (AR v2)Track 17 accurately ripped (confidence 4) [B2A0A158] (AR v2)Track 18 accurately ripped (confidence 5) [F39A5151] (AR v2)Track 19 accurately ripped (confidence 5) [D59A30FC] (AR v2)Track 20 accurately ripped (confidence 4) [CD3955AD] (AR v2)Track 21 accurately ripped (confidence 5) [19DD5C7B] (AR v2)Track 22 accurately ripped (confidence 5) [FCB71BFA] (AR v2)Track 23 accurately ripped (confidence 5) [B0DD897E] (AR v2)Track 24 accurately ripped (confidence 5) [7E55B354] (AR v2)Track 25 accurately ripped (confidence 5) [856D8F78] (AR v2)Track 26 accurately ripped (confidence 5) [890C6844] (AR v2)Track 27 accurately ripped (confidence 5) [AA43C945] (AR v2)Track 28 accurately ripped (confidence 5) [029CF34E] (AR v2)Track 29 accurately ripped (confidence 5) [43162149] (AR v2)Track 30 accurately ripped (confidence 5) [84A9E4B9] (AR v2)Track 31 accurately ripped (confidence 5) [A3AD9751] (AR v2)Track 32 accurately ripped (confidence 5) [851A42FD] (AR v2)
All tracks accurately ripped
End of status report
---- CUETools DB Plugin V2.1.6
[CTDB TOCID: 2OR_a3bPd6rIoQTvW6S8pp07MP0-] foundSubmit result: 2OR_a3bPd6rIoQTvW6S8pp07MP0- has been confirmedTrack | CTDB Status 1 | (9/9) Accurately ripped 2 | (9/9) Accurately ripped 3 | (9/9) Accurately ripped 4 | (9/9) Accurately ripped 5 | (9/9) Accurately ripped 6 | (9/9) Accurately ripped 7 | (9/9) Accurately ripped 8 | (9/9) Accurately ripped 9 | (9/9) Accurately ripped 10 | (9/9) Accurately ripped 11 | (9/9) Accurately ripped 12 | (9/9) Accurately ripped 13 | (9/9) Accurately ripped 14 | (9/9) Accurately ripped 15 | (9/9) Accurately ripped 16 | (9/9) Accurately ripped 17 | (9/9) Accurately ripped 18 | (9/9) Accurately ripped 19 | (9/9) Accurately ripped 20 | (9/9) Accurately ripped 21 | (9/9) Accurately ripped 22 | (9/9) Accurately ripped 23 | (9/9) Accurately ripped 24 | (9/9) Accurately ripped 25 | (9/9) Accurately ripped 26 | (9/9) Accurately ripped 27 | (7/9) Accurately ripped 28 | (9/9) Accurately ripped 29 | (9/9) Accurately ripped 30 | (9/9) Accurately ripped 31 | (9/9) Accurately ripped 32 | (9/9) Accurately ripped
==== Log checksum 78761AF30C58A5D12F379B5E931C6F2F4B17B9E6089F586985D6D89FC2B5DBFA ====

CD3

Exact Audio Copy V1.3 from 2. September 2016
EAC extraction logfile from 23. April 2018, 15:16
Karl Richter / Handel - Samson (Disc 3)
Used drive : ATAPI iHAS124 F Adapter: 1 ID: 0
Read mode : SecureUtilize accurate stream : YesDefeat audio cache : YesMake use of C2 pointers : No
Read offset correction : 6Overread into Lead-In and Lead-Out : NoFill up missing offset samples with silence : YesDelete leading and trailing silent blocks : NoNull samples used in CRC calculations : YesUsed interface : Native Win32 interface for Win NT & 2000
Used output format : User Defined EncoderSelected bitrate : 1024 kBit/sQuality : HighAdd ID3 tag : NoCommand line compressor : C:\Program Files (x86)\Exact Audio Copy\FLAC\FLAC.EXEAdditional command line options : -8 -V -T "TITLE=%title%" -T "ARTIST=%artist%" -T "ALBUMARTIST=%albumartist%" -T "ALBUM=%albumtitle%" -T "DATE=%year%" -T "TRACKNUMBER=%tracknr%" -T "TRACKTOTAL=%numtracks%" -T "GENRE=%genre%" -T "COMMENT=%comment%" -T "PERFORMER=%albuminterpret%" -T "COMPOSER=%composer%" %source% -o %dest%
TOC of the extracted CD
Track | Start | Length | Start sector | End sector --------------------------------------------------------- 1 | 0:00.00 | 1:32.70 | 0 | 6969 2 | 1:32.70 | 2:40.30 | 6970 | 18999 3 | 4:13.25 | 0:49.20 | 19000 | 22694 4 | 5:02.45 | 3:06.30 | 22695 | 36674 5 | 8:09.00 | 2:59.00 | 36675 | 50099 6 | 11:08.00 | 3:59.50 | 50100 | 68074 7 | 15:07.50 | 0:28.70 | 68075 | 70244 8 | 15:36.45 | 2:14.47 | 70245 | 80341 9 | 17:51.17 | 0:31.70 | 80342 | 82736 10 | 18:23.12 | 3:51.18 | 82737 | 100079 11 | 22:14.30 | 0:59.45 | 100080 | 104549 12 | 23:14.00 | 3:23.50 | 104550 | 119824 13 | 26:37.50 | 0:49.67 | 119825 | 123566 14 | 27:27.42 | 1:26.33 | 123567 | 130049 15 | 28:54.00 | 0:46.57 | 130050 | 133556 16 | 29:40.57 | 2:54.18 | 133557 | 146624 17 | 32:35.00 | 4:29.00 | 146625 | 166799 18 | 37:04.00 | 0:59.00 | 166800 | 171224 19 | 38:03.00 | 2:54.00 | 171225 | 184274 20 | 40:57.00 | 1:06.35 | 184275 | 189259 21 | 42:03.35 | 6:19.40 | 189260 | 217724 22 | 48:23.00 | 0:23.45 | 217725 | 219494 23 | 48:46.45 | 3:14.30 | 219495 | 234074 24 | 52:01.00 | 2:55.00 | 234075 | 247199
Range status and errors
Selected range
Filename C:\EACRip\HANDEL\Handel - Samson (Karl Richter) (1969)\CD3\Handel - Samson (Disc 3) - Karl Richter.wav
Peak level 97.7 % Extraction speed 8.3 X Range quality 100.0 % Test CRC 754579C6 Copy CRC 754579C6 Copy OK
No errors occurred
AccurateRip summary
Track 1 accurately ripped (confidence 5) [2F039B00] (AR v2)Track 2 accurately ripped (confidence 5) [0D2CBA4B] (AR v2)Track 3 accurately ripped (confidence 5) [92AC88F0] (AR v2)Track 4 accurately ripped (confidence 5) [DD449B86] (AR v2)Track 5 accurately ripped (confidence 5) [53F940B7] (AR v2)Track 6 accurately ripped (confidence 5) [24CEEC55] (AR v2)Track 7 accurately ripped (confidence 5) [999A8709] (AR v2)Track 8 accurately ripped (confidence 5) [6E8F744C] (AR v2)Track 9 accurately ripped (confidence 5) [749B0A96] (AR v2)Track 10 accurately ripped (confidence 5) [2A08DCFB] (AR v2)Track 11 accurately ripped (confidence 5) [51BC60DC] (AR v2)Track 12 accurately ripped (confidence 5) [2685D99D] (AR v2)Track 13 accurately ripped (confidence 5) [70F49CDB] (AR v2)Track 14 accurately ripped (confidence 5) [4C564D1A] (AR v2)Track 15 accurately ripped (confidence 5) [44B1B963] (AR v2)Track 16 accurately ripped (confidence 5) [FBA0F45C] (AR v2)Track 17 accurately ripped (confidence 5) [62D2D172] (AR v2)Track 18 accurately ripped (confidence 5) [2D57A35B] (AR v2)Track 19 accurately ripped (confidence 5) [DD631A69] (AR v2)Track 20 accurately ripped (confidence 5) [4A8523F7] (AR v2)Track 21 accurately ripped (confidence 4) [E8B1EA9D] (AR v2)Track 22 accurately ripped (confidence 5) [2E0A2553] (AR v2)Track 23 accurately ripped (confidence 5) [E327A712] (AR v2)Track 24 accurately ripped (confidence 5) [4AE1ACB0] (AR v2)
All tracks accurately ripped
End of status report
---- CUETools DB Plugin V2.1.6
[CTDB TOCID: YY5IjbKoB3w5hfgyPyheyvQeNio-] foundSubmit result: YY5IjbKoB3w5hfgyPyheyvQeNio- has been confirmedTrack | CTDB Status 1 | (7/7) Accurately ripped 2 | (7/7) Accurately ripped 3 | (7/7) Accurately ripped 4 | (7/7) Accurately ripped 5 | (7/7) Accurately ripped 6 | (7/7) Accurately ripped 7 | (7/7) Accurately ripped 8 | (7/7) Accurately ripped 9 | (7/7) Accurately ripped 10 | (7/7) Accurately ripped 11 | (7/7) Accurately ripped 12 | (7/7) Accurately ripped 13 | (7/7) Accurately ripped 14 | (7/7) Accurately ripped 15 | (7/7) Accurately ripped 16 | (7/7) Accurately ripped 17 | (7/7) Accurately ripped 18 | (7/7) Accurately ripped 19 | (7/7) Accurately ripped 20 | (7/7) Accurately ripped 21 | (7/7) Accurately ripped 22 | (7/7) Accurately ripped 23 | (7/7) Accurately ripped 24 | (7/7) Accurately ripped
==== Log checksum 076CEBEB2445E94E191EC3D6755A8ABFA2AC6E50E569E361F366F82413D9DB62 ====

Содержание индексной карты (.CUE)

CD1

REM GENRE OratoriumREM DATE 1969REM DISCID AC11A41EREM COMMENT "ExactAudioCopy v1.3"PERFORMER "Münchener Bach-Chor, Münchener Bach-Orchester (Soloists: Herbert Segel, Wolfgang Haag - flute; Manfred Clement, Andreas Schwinn - oboe; Hermann Baumann, Werner Meyendorf - horn, Maurice André, Paul Lachenmeier - trumpet; Franz Eder, Lothar Zirkelbach - trombone / Continuo: Kenneth Heath - violincello; Herbert Duft - double bass; Detlev Kühl - bassoon; Elmar Schloter - organ; Kerl Richter, Iwona Fütterer - harpsichord), Karl Richter (conductor) / Alexander Young (Samson -tenor-), Martina Arroyo (Dalila -soprano-), Norma Procter (Micah -contralto-), Thomas Stewart (Manoa -bass-), Ezio Flagello (Harapha -bass-), Helen Donath (Israelitish Man/Israelitish Woman/Philistine Woman/Virgin attending on Dalila -soprano-), Sheila Armstrong (Israelitish Man/Israelitish Woman/Philistine Woman/Virgin attending on Dalila -soprano-), Jerry J. Jennings (Israelitish Man/A Philistine/Messenger -tenor-)"TITLE "Handel - Samson (Disc 1)"REM COMPOSER "George Frideric Handel (1685-1759)"FILE "Handel - Samson (Disc 1) - Karl Richter.flac" WAVE  TRACK 01 AUDIO    TITLE "SAMSON, oratorio in the acts HWV 57. Libretto: Newburgh Hamilton after Samson Agonistes and other poems by John Milton - Symfony"    PERFORMER "Münchener Bach-Orchester, Karl Richter"    REM COMPOSER "George Frideric Handel"    INDEX 00 00:00:00    INDEX 01 00:00:32  TRACK 02 AUDIO    TITLE "ACT I. Scene 1. Recitative (Samson): “This day, a solemn feast to dagon held”"    PERFORMER "Münchener Bach-Orchester, Karl Richter & Alexander Young"    REM COMPOSER "George Frideric Handel"    INDEX 01 09:28:32  TRACK 03 AUDIO    TITLE "Scene 1. Chorus of Philistines: “Awake the trumpet’s lofty sound!”"    PERFORMER "Münchener Bach-Chor, Münchener Bach-Orchester, Karl Richter"    REM COMPOSER "George Frideric Handel"    INDEX 01 10:07:32  TRACK 04 AUDIO    TITLE "Scene 1. Air (Philistine Woman): “Ye men of Gaza, hither bring”"    PERFORMER "Münchener Bach-Orchester, Karl Richter & Helen Donath (Sheila Armstrong?)"    REM COMPOSER "George Frideric Handel"    INDEX 01 12:11:32  TRACK 05 AUDIO    TITLE "Scene 1. Chorus of Philistines: “Awake the trumpet’s lofty sound!”"    PERFORMER "Münchener Bach-Chor, Münchener Bach-Orchester, Karl Richter"    REM COMPOSER "George Frideric Handel"    INDEX 01 16:22:32  TRACK 06 AUDIO    TITLE "Scene 1. Air (A Philistine): “Loud as the thunder’s awful voice”"    PERFORMER "Münchener Bach-Orchester, Karl Richter & Jerry J. Jennings"    REM COMPOSER "George Frideric Handel"    INDEX 01 16:54:57  TRACK 07 AUDIO    TITLE "Scene 1. Air (Philistine Woman): “Then free from sorrow, free from thrall”"    PERFORMER "Münchener Bach-Orchester, Karl Richter & Helen Donath (Sheila Armstrong?)"    REM COMPOSER "George Frideric Handel"    INDEX 01 19:58:07  TRACK 08 AUDIO    TITLE "Scene 1. Chorus of Philistines: “Awake the trumpet’s lofty sound!”"    PERFORMER "Münchener Bach-Chor, Münchener Bach-Orchester, Karl Richter"    REM COMPOSER "George Frideric Handel"    INDEX 01 22:40:20  TRACK 09 AUDIO    TITLE "Scene 1. Recitative (Samson): “Why by an angel was my birth foretold”"    PERFORMER "Münchener Bach-Orchester, Karl Richter & Alexander Young"    REM COMPOSER "George Frideric Handel"    INDEX 01 23:13:32  TRACK 10 AUDIO    TITLE "Scene 1. Air (Samson): “Torments, alas! are not confin’d”"    PERFORMER "Münchener Bach-Orchester, Karl Richter & Alexander Young"    REM COMPOSER "George Frideric Handel"    INDEX 01 23:52:05  TRACK 11 AUDIO    TITLE "Scene 2. Recitative (Micah): “Oh change beyond report, thought, or belief!”"    PERFORMER "Münchener Bach-Orchester, Karl Richter & Norma Procter"    REM COMPOSER "George Frideric Handel"    INDEX 01 29:02:32  TRACK 12 AUDIO    TITLE "Scene 2. Air (Micah): “Oh mirror of our fickle state!”"    PERFORMER "Münchener Bach-Orchester, Karl Richter & Norma Procter"    REM COMPOSER "George Frideric Handel"    INDEX 01 30:09:57  TRACK 13 AUDIO    TITLE "Scene 2. Recitative (Samson, Micah): “Whom have I to complain of but myself”"    PERFORMER "Münchener Bach-Orchester, Karl Richter & Alexander Young, Norma Procter"    REM COMPOSER "George Frideric Handel"    INDEX 01 34:05:32  TRACK 14 AUDIO    TITLE "Scene 2. Air (Samson): “Total eclipse! No sun, no moon!”"    PERFORMER "Münchener Bach-Orchester, Karl Richter & Alexander Young"    REM COMPOSER "George Frideric Handel"    INDEX 01 35:39:57  TRACK 15 AUDIO    TITLE "Scene 2. Chorus of Israelites: “Oh first created beam! And thou great word!”"    PERFORMER "Münchener Bach-Chor, Münchener Bach-Orchester, Karl Richter"    REM COMPOSER "George Frideric Handel"    INDEX 01 40:09:32  TRACK 16 AUDIO    TITLE "Scene 2. Recitative (Samson, Micah): “Ye see, my friends, how woes enclose me round”"    PERFORMER "Münchener Bach-Orchester, Karl Richter & Alexander Young, Norma Procter"    REM COMPOSER "George Frideric Handel"    INDEX 01 43:23:15  TRACK 17 AUDIO    TITLE "Scene 3. Recitative (Manoa, Micah): “Brethren and men of Dan, say, where is my son”"    PERFORMER "Münchener Bach-Orchester, Karl Richter & Thomas Stewart, Norma Procter"    REM COMPOSER "George Frideric Handel"    INDEX 01 44:25:12  TRACK 18 AUDIO    TITLE "Scene 3. Recitative (Manoa): “Oh miserable change! is this the man”"    PERFORMER "Münchener Bach-Orchester, Karl Richter & Thomas Stewart"    REM COMPOSER "George Frideric Handel"    INDEX 01 45:05:70  TRACK 19 AUDIO    TITLE "Scene 3. Recitative (Israelitish Man): “Oh ever failing trust in mortal strength!”"    PERFORMER "Münchener Bach-Orchester, Karl Richter & Jerry J. Jennings"    REM COMPOSER "George Frideric Handel"    INDEX 01 46:09:47  TRACK 20 AUDIO    TITLE "Scene 3. Air (Israelitish Man): “God of our fathers”"    PERFORMER "Münchener Bach-Orchester, Karl Richter & Jerry J. Jennings"    REM COMPOSER "George Frideric Handel"    INDEX 01 46:32:45  TRACK 21 AUDIO    TITLE "Scene 3. Recitative (Manoa): “The good we wish for”"    PERFORMER "Münchener Bach-Orchester, Karl Richter & Thomas Stewart"    REM COMPOSER "George Frideric Handel"    INDEX 01 50:15:32  TRACK 22 AUDIO    TITLE "Scene 3. Air (Manoa): “Thy glorious deeds inspir’d my tongue”"    PERFORMER "Münchener Bach-Orchester, Karl Richter & Thomas Stewart"    REM COMPOSER "George Frideric Handel"    INDEX 01 51:27:02  TRACK 23 AUDIO    TITLE "Scene 3. Recitative (Samson): “Justly these evils have hefall’n thy son”"    PERFORMER "Münchener Bach-Orchester, Karl Richter & Alexander Young"    REM COMPOSER "George Frideric Handel"    INDEX 01 56:00:32  TRACK 24 AUDIO    TITLE "Scene 3. Air (Samson): “Why does the God of Israel sleep?”"    PERFORMER "Münchener Bach-Orchester, Karl Richter & Alexander Young"    REM COMPOSER "George Frideric Handel"    INDEX 01 57:23:10  TRACK 25 AUDIO    TITLE "Scene 3. Recitative (Micah): “There lies our hope! True prophet may’st thou be”"    PERFORMER "Münchener Bach-Orchester, Karl Richter & Norma Procter"    REM COMPOSER "George Frideric Handel"    INDEX 01 62:23:10  TRACK 26 AUDIO    TITLE "Scene 3. Chorus of Israelites: “Then shall they know, that He whose name”"    PERFORMER "Münchener Bach-Chor, Münchener Bach-Orchester, Karl Richter"    REM COMPOSER "George Frideric Handel"    INDEX 01 62:48:12  TRACK 27 AUDIO    TITLE "Scene 3. Recitative (Manoa, Samson): “For thee, my dearest son”"    PERFORMER "Münchener Bach-Orchester, Karl Richter & Thomas Stewart, Alexander Young"    REM COMPOSER "George Frideric Handel"    INDEX 01 65:04:70  TRACK 28 AUDIO    TITLE "Scene 3. Air (Micah): Then long eternity shall greet your bliss”"    PERFORMER "Münchener Bach-Orchester, Karl Richter & Norma Procter"    REM COMPOSER "George Frideric Handel"    INDEX 01 67:00:32  TRACK 29 AUDIO    TITLE "Scene 3. Air (Micah): Joys that are pure”"    PERFORMER "Münchener Bach-Orchester, Karl Richter & Norma Procter"    REM COMPOSER "George Frideric Handel"    INDEX 01 68:07:32  TRACK 30 AUDIO    TITLE "Scene 3. Chorus of Israelites: Then round about the starry throne”"    PERFORMER "Münchener Bach-Chor, Münchener Bach-Orchester, Karl Richter"    REM COMPOSER "George Frideric Handel"    INDEX 01 73:14:32

CD2

REM GENRE OratorioREM DATE 1969REM DISCID CB120920REM COMMENT "ExactAudioCopy v1.3"PERFORMER "Münchener Bach-Chor, Münchener Bach-Orchester (Soloists: Herbert Segel, Wolfgang Haag - flute; Manfred Clement, Andreas Schwinn - oboe; Hermann Baumann, Werner Meyendorf - horn, Maurice André, Paul Lachenmeier - trumpet; Franz Eder, Lothar Zirkelbach - trombone / Continuo: Kenneth Heath - violincello; Herbert Duft - double bass; Detlev Kühl - bassoon; Elmar Schloter - organ; Kerl Richter, Iwona Fütterer - harpsichord), Karl Richter (conductor) / Alexander Young (Samson -tenor-), Martina Arroyo (Dalila -soprano-), Norma Procter (Micah -contralto-), Thomas Stewart (Manoa -bass-), Ezio Flagello (Harapha -bass-), Helen Donath (Israelitish Man/Israelitish Woman/Philistine Woman/Virgin attending on Dalila -soprano-), Sheila Armstrong (Israelitish Man/Israelitish Woman/Philistine Woman/Virgin attending on Dalila -soprano-), Jerry J. Jennings (Israelitish Man/A Philistine/Messenger -tenor-)"TITLE "Handel - Samson (Disc 2)"REM COMPOSER "George Frideric Handel (1685-1759)"FILE "Handel - Samson (Disc 2) - Karl Richter.flac" WAVE  TRACK 01 AUDIO    TITLE "ACT II. Scene 1. Recitative (Manoa): “Trust yet in God! thy father’s timely care”"    PERFORMER "Münchener Bach-Orchester, Karl Richter & Thomas Stewart"    REM COMPOSER "George Frideric Handel"    INDEX 01 00:00:00  TRACK 02 AUDIO    TITLE "Scene 1. Recitative (Samson, Micah): “My evils hopeless are! One pray’r remains”"    PERFORMER "Münchener Bach-Orchester, Karl Richter & Alexander Young, Norma Procter"    REM COMPOSER "George Frideric Handel"    INDEX 01 00:23:07  TRACK 03 AUDIO    TITLE "Scene 1. Air (Micah): “Return, oh God of hosts!”"    PERFORMER "Münchener Bach-Orchester, Karl Richter & Norma Procter"    REM COMPOSER "George Frideric Handel"    INDEX 01 01:18:00  TRACK 04 AUDIO    TITLE "Scene 1. Air (Micah): and Chorus of Israelites: “To dust his glory they would tread”"    PERFORMER "Münchener Bach-Orchester, Karl Richter & Norma Procter"    REM COMPOSER "George Frideric Handel"    INDEX 01 07:07:50  TRACK 05 AUDIO    TITLE "Scene 2. Recitative (Micah, Samson): “But who is this? that so bedeck’d and gay”"    PERFORMER "Münchener Bach-Orchester, Karl Richter & Norma Procter, Alexander Young"    REM COMPOSER "George Frideric Handel"    INDEX 01 11:28:00  TRACK 06 AUDIO    TITLE "Scene 2. Recitative (Dalila, Samson): “With doubtful feet, and wav’ring resolution”"    PERFORMER "Münchener Bach-Orchester, Karl Richter & Martina Arroyo, Alexander Young"    REM COMPOSER "George Frideric Handel"    INDEX 01 12:42:00  TRACK 07 AUDIO    TITLE "Scene 2. Air (Virgin): “With plaintive notes and am’rous moan”"    PERFORMER "Münchener Bach-Orchester, Karl Richter & Helen Donath (Sheila Armstrong?)"    REM COMPOSER "George Frideric Handel"    INDEX 01 14:27:25  TRACK 08 AUDIO    TITLE "Scene 2. Recitative (Samson): “Did love constrain thee? No, ’twas raging lust!”"    PERFORMER "Münchener Bach-Orchester, Karl Richter & Alexander Young"    REM COMPOSER "George Frideric Handel"    INDEX 01 21:39:25  TRACK 09 AUDIO    TITLE "Scene 2. Air (Samson): “Your charms to ruin led the way”"    PERFORMER "Münchener Bach-Orchester, Karl Richter & Alexander Young"    REM COMPOSER "George Frideric Handel"    INDEX 01 22:16:05  TRACK 10 AUDIO    TITLE "Scene 2. Recitative (Dalila): “Forgive what’s done, nor think of what’s past cure”"    PERFORMER "Münchener Bach-Orchester, Karl Richter & Martina Arroyo"    REM COMPOSER "George Frideric Handel"    INDEX 01 25:57:00  TRACK 11 AUDIO    TITLE "Scene 2. Duet (Dalila, Virgin): “My faith and truth, oh Samson, prove"    PERFORMER "Münchener Bach-Orchester, Karl Richter & Martina Arroyo, Helen Donath (Sheila Armstrong?)"    REM COMPOSER "George Frideric Handel"    INDEX 01 26:38:37  TRACK 12 AUDIO    TITLE "Scene 2. Chorus of Virgins: “Her faith and truth, oh Samson, prove”"    PERFORMER "Münchener Bach-Chor, Münchener Bach-Orchester, Karl Richter"    REM COMPOSER "George Frideric Handel"    INDEX 01 32:17:02  TRACK 13 AUDIO    TITLE "Scene 2. Air, 1st verse (Dalila): “To fleeting pleasures make your court”"    PERFORMER "Münchener Bach-Orchester, Karl Richter & Martina Arroyo"    REM COMPOSER "George Frideric Handel"    INDEX 01 33:40:00  TRACK 14 AUDIO    TITLE "Scene 2. Chorus of Virgins: “Her faith and truth, oh Samson, prove”"    PERFORMER "Münchener Bach-Chor, Münchener Bach-Orchester, Karl Richter"    REM COMPOSER "George Frideric Handel"    INDEX 01 36:05:00  TRACK 15 AUDIO    TITLE "Scene 2. Air, 2nd verse (Dalila): “How charming is domestic ease!”"    PERFORMER "Münchener Bach-Orchester, Karl Richter & Martina Arroyo"    REM COMPOSER "George Frideric Handel"    INDEX 01 37:31:00  TRACK 16 AUDIO    TITLE "Scene 2. Chorus of Virgins: “Her faith and truth, oh Samson, prove”"    PERFORMER "Münchener Bach-Chor, Münchener Bach-Orchester, Karl Richter"    REM COMPOSER "George Frideric Handel"    INDEX 01 39:57:00  TRACK 17 AUDIO    TITLE "Scene 2. Recitative (Samson, Dalila): “Ne’er think of that! I know thy warbling charms”"    PERFORMER "Münchener Bach-Orchester, Karl Richter & Alexander Young, Martina Arroyo"    REM COMPOSER "George Frideric Handel"    INDEX 01 41:22:00  TRACK 18 AUDIO    TITLE "Scene 2. Duet (Dalila, Samson): “Traitor to love! I’ll sue no more”"    PERFORMER "Münchener Bach-Orchester, Karl Richter & Martina Arroyo, Alexander Young"    REM COMPOSER "George Frideric Handel"    INDEX 01 43:07:37  TRACK 19 AUDIO    TITLE "Scene 3. Recitative (Micah, Samson): “A serpent manifest, her sting discover’d in the end”"    PERFORMER "Münchener Bach-Orchester, Karl Richter & Norma Procter, Alexander Young"    REM COMPOSER "George Frideric Handel"    INDEX 01 44:53:30  TRACK 20 AUDIO    TITLE "Scene 3. Air (Israelitish Man): “It is not virtue, valour, wit”"    PERFORMER "Münchener Bach-Orchester, Karl Richter & Jerry J. Jennings"    REM COMPOSER "George Frideric Handel"    INDEX 01 45:11:55  TRACK 21 AUDIO    TITLE "Scene 3. Recitative (Samson): “Favour’d of heaven is he, who finds one true”"    PERFORMER "Münchener Bach-Orchester, Karl Richter & Alexander Young"    REM COMPOSER "George Frideric Handel"    INDEX 01 49:59:30  TRACK 22 AUDIO    TITLE "Scene 3. Chorus of Israelites: “To man God’s universal law”"    PERFORMER "Münchener Bach-Chor, Münchener Bach-Orchester, Karl Richter"    REM COMPOSER "George Frideric Handel"    INDEX 01 50:30:62  TRACK 23 AUDIO    TITLE "Scene 4. Recitative (Micah, Harapha, Samson): “No words of peace, no voice enchanting fear”"    PERFORMER "Münchener Bach-Orchester, Karl Richter & Norma Procter, Ezio Flagello, Alexander Young"    REM COMPOSER "George Frideric Handel"    INDEX 01 52:55:62  TRACK 24 AUDIO    TITLE "Scene 4. Air (Harapha): “Honour and arms scorn such a foe”"    PERFORMER "Münchener Bach-Orchester, Karl Richter & Ezio Flagello"    REM COMPOSER "George Frideric Handel"    INDEX 01 54:48:40  TRACK 25 AUDIO    TITLE "Scene 4. Recitative (Samson, Harapha): “Cam’st thou for this, vain boaster?”"    PERFORMER "Münchener Bach-Orchester, Karl Richter & Alexander Young, Ezio Flagello"    REM COMPOSER "George Frideric Handel"    INDEX 01 60:15:00  TRACK 26 AUDIO    TITLE "Scene 4. Duet (Samson, Harapha): “Go, baffled coward, go”"    PERFORMER "Münchener Bach-Orchester, Karl Richter & Alexander Young, Ezio Flagello"    REM COMPOSER "George Frideric Handel"    INDEX 01 60:51:10  TRACK 27 AUDIO    TITLE "Scene 4. Recitative (Micah): “Here lies the proof”"    PERFORMER "Münchener Bach-Orchester, Karl Richter & Norma Procter"    REM COMPOSER "George Frideric Handel"    INDEX 01 63:23:00  TRACK 28 AUDIO    TITLE "Scene 4. Chorus of Israelites: “Hear, Jacob’s God, Jehovah, hear!”"    PERFORMER "Münchener Bach-Chor, Münchener Bach-Orchester, Karl Richter"    REM COMPOSER "George Frideric Handel"    INDEX 01 64:26:42  TRACK 29 AUDIO    TITLE "Scene 4. Recitative (Harapha): “Dagon, arise! attend thy sacred feast!”"    PERFORMER "Münchener Bach-Orchester, Karl Richter & Ezio Flagello"    REM COMPOSER "George Frideric Handel"    INDEX 01 68:04:05  TRACK 30 AUDIO    TITLE "Scene 4. Air (A Philistine): “To song and dance we give the day”"    PERFORMER "Münchener Bach-Orchester, Karl Richter & Jerry J. Jennings"    REM COMPOSER "George Frideric Handel"    INDEX 01 68:19:40  TRACK 31 AUDIO    TITLE "Scene 4. Chorus of Philistines: “To song and dance we give the day”"    PERFORMER "Münchener Bach-Chor, Münchener Bach-Orchester, Karl Richter"    REM COMPOSER "George Frideric Handel"    INDEX 01 71:48:67  TRACK 32 AUDIO    TITLE "Scene 4. Double Chorus of Israelites and Philistines: “Fix’d in his everlasting seat”"    PERFORMER "Münchener Bach-Chor, Münchener Bach-Orchester, Karl Richter"    REM COMPOSER "George Frideric Handel"    INDEX 01 73:45:37

CD3

REM GENRE OratoriumREM DATE 1969REM DISCID 680CE018REM COMMENT "ExactAudioCopy v1.3"PERFORMER "Münchener Bach-Chor, Münchener Bach-Orchester (Soloists: Herbert Segel, Wolfgang Haag - flute; Manfred Clement, Andreas Schwinn - oboe; Hermann Baumann, Werner Meyendorf - horn, Maurice André, Paul Lachenmeier - trumpet; Franz Eder, Lothar Zirkelbach - trombone / Continuo: Kenneth Heath - violincello; Herbert Duft - double bass; Detlev Kühl - bassoon; Elmar Schloter - organ; Kerl Richter, Iwona Fütterer - harpsichord), Karl Richter (conductor) / Alexander Young (Samson -tenor-), Martina Arroyo (Dalila -soprano-), Norma Procter (Micah -contralto-), Thomas Stewart (Manoa -bass-), Ezio Flagello (Harapha -bass-), Helen Donath (Israelitish Man/Israelitish Woman/Philistine Woman/Virgin attending on Dalila -soprano-), Sheila Armstrong (Israelitish Man/Israelitish Woman/Philistine Woman/Virgin attending on Dalila -soprano-), Jerry J. Jennings (Israelitish Man/A Philistine/Messenger -tenor-)"TITLE "Handel - Samson (Disc 3)"REM COMPOSER "George Frideric Handel (1685-1759)"FILE "Handel - Samson (Disc 3) - Karl Richter.flac" WAVE  TRACK 01 AUDIO    TITLE "ACT III. Scene 1. Recitative (Micah, Samson, Harapha): “More trouble is behind, for Harapha”"    PERFORMER "Münchener Bach-Orchester, Karl Richter & Norma Procter, Alexander Young, Ezio Flagello"    REM COMPOSER "George Frideric Handel"    INDEX 01 00:00:00  TRACK 02 AUDIO    TITLE "Scene 1. Air (Harapha): “Presuming slave, to move their wrath!”"    PERFORMER "Münchener Bach-Orchester, Karl Richter & Ezio Flagello"    REM COMPOSER "George Frideric Handel"    INDEX 01 01:32:70  TRACK 03 AUDIO    TITLE "Scene 1. Recitative (Micah, Samson): “Reflect then, Samson, matters now are strain’d”"    PERFORMER "Münchener Bach-Orchester, Karl Richter & Norma Procter, Alexander Young"    REM COMPOSER "George Frideric Handel"    INDEX 01 04:13:25  TRACK 04 AUDIO    TITLE "Scene 1. Chorus of Israelites: “With thunder arm’d, great God, arise!”"    PERFORMER "Münchener Bach-Chor, Münchener Bach-Orchester, Karl Richter"    REM COMPOSER "George Frideric Handel"    INDEX 01 05:02:45  TRACK 05 AUDIO    TITLE "Scene 1. Recitative (Samson, Micah, Harapha): “Be of good courage ; I begin to feel”"    PERFORMER "Münchener Bach-Orchester, Karl Richter & Alexander Young, Norma Procter, Ezio Flagello"    REM COMPOSER "George Frideric Handel"    INDEX 01 08:09:00  TRACK 06 AUDIO    TITLE "Scene 1. Air (Samson): “Thus when the sun from’s wat’ry bed”"    PERFORMER "Münchener Bach-Orchester, Karl Richter & Alexander Young"    REM COMPOSER "George Frideric Handel"    INDEX 01 11:08:00  TRACK 07 AUDIO    TITLE "Scene 1. Air (Micah): “With might endued above the sons of men”"    PERFORMER "Münchener Bach-Orchester, Karl Richter & Norma Procter"    REM COMPOSER "George Frideric Handel"    INDEX 01 15:07:50  TRACK 08 AUDIO    TITLE "Scene 1. Air (Micah): “The Holy One of Israel be thy guide” ; Chorus of Israelites: “To fame immortal go”"    PERFORMER "Münchener Bach-Chor, Münchener Bach-Orchester, Karl Richter & Norma Procter"    REM COMPOSER "George Frideric Handel"    INDEX 01 15:36:45  TRACK 09 AUDIO    TITLE "Scene 2. Recitative (Micah, Manoa): “Old Manoa, with youthful steps”"    PERFORMER "Münchener Bach-Orchester, Karl Richter & Norma Procter, Thomas Stewart"    REM COMPOSER "George Frideric Handel"    INDEX 01 17:51:17  TRACK 10 AUDIO    TITLE "Scene 2. Air (A Philistine) and Chorus of Philistines: “Great Dagon has subdued our foe”"    PERFORMER "Münchener Bach-Chor, Münchener Bach-Orchester, Karl Richter & Jerry J. Jennings"    REM COMPOSER "George Frideric Handel"    INDEX 01 18:23:12  TRACK 11 AUDIO    TITLE "Scene 2. Recitative (Manoa, Micah): “What noise of joy was that? it tore the sky”"    PERFORMER "Münchener Bach-Orchester, Karl Richter & Thomas Stewart, Norma Procter"    REM COMPOSER "George Frideric Handel"    INDEX 01 22:14:30  TRACK 12 AUDIO    TITLE "Scene 2. Air (Manoa): “How willing my paternal love”"    PERFORMER "Münchener Bach-Orchester, Karl Richter & Thomas Stewart"    REM COMPOSER "George Frideric Handel"    INDEX 01 23:14:00  TRACK 13 AUDIO    TITLE "Scene 2. Recitative (Micah, Manoa): “Your hopes of his deliv’ry seem not vain”"    PERFORMER "Münchener Bach-Orchester, Karl Richter & Norma Procter, Thomas Stewart"    REM COMPOSER "George Frideric Handel"    INDEX 01 26:37:50  TRACK 14 AUDIO    TITLE "Scene 2. Chorus of Philistines: “Hear us, our God! oh hear our cry!”"    PERFORMER "Münchener Bach-Chor, Münchener Bach-Orchester, Karl Richter"    REM COMPOSER "George Frideric Handel"    INDEX 01 27:27:42  TRACK 15 AUDIO    TITLE "Scene 2. Recitative (Micah, Manoa): “Noise call you this? An universal groan”"    PERFORMER "Münchener Bach-Orchester, Karl Richter & Norma Procter, Thomas Stewart"    REM COMPOSER "George Frideric Handel"    INDEX 01 28:54:00  TRACK 16 AUDIO    TITLE "Scene 3. Recitative (Messenger, Micah, Manoa): “Where shall I run, or which way fly the thoughts”"    PERFORMER "Münchener Bach-Orchester, Karl Richter & Jerry J. Jennings, Norma Procter, Thomas Stewart"    REM COMPOSER "George Frideric Handel"    INDEX 01 29:40:57  TRACK 17 AUDIO    TITLE "Scene 3. Air (Micah): “Ye sons of Israel, now lament” ; Chorus of Israelites: “Weep, Israel, weep a louder strain”"    PERFORMER "Münchener Bach-Chor, Münchener Bach-Orchester, Karl Richter & Norma Procter"    REM COMPOSER "George Frideric Handel"    INDEX 01 32:35:00  TRACK 18 AUDIO    TITLE "Scene 3. Recitative (Manoa): “Proceed we hence to find his body”"    PERFORMER "Münchener Bach-Orchester, Karl Richter & Thomas Stewart"    REM COMPOSER "George Frideric Handel"    INDEX 01 37:04:00  TRACK 19 AUDIO    TITLE "Scene 3. Dead March"    PERFORMER "Münchener Bach-Orchester, Karl Richter"    REM COMPOSER "George Frideric Handel"    INDEX 01 38:03:00  TRACK 20 AUDIO    TITLE "Scene 3. Recitative (Micah, Manoa): “The body comes; we’ll meet it on the way”"    PERFORMER "Münchener Bach-Orchester, Karl Richter & Norma Procter, Thomas Stewart"    REM COMPOSER "George Frideric Handel"    INDEX 01 40:57:00  TRACK 21 AUDIO    TITLE "Scene 3. Solo (Manoa) and Chorus of Israelites: “Glorious hero, may thy grave” ; Accompagnato (Israelitish Woman): “The virgins too shall on their feastful days” ; Chorus of Virgins: “Bring the laurels, bring the bays” ; Solo (Israelitish Woman): “May ev'ry hero fall like thee”"    PERFORMER "Münchener Bach-Chor, Münchener Bach-Orchester, Karl Richter & Thomas Stewart, Helen Donath (Sheila Armstrong?)"    REM COMPOSER "George Frideric Handel"    INDEX 01 42:03:35  TRACK 22 AUDIO    TITLE "Scene 3. Recitative (Manoa): “Come, come! no time for lamentation now”"    PERFORMER "Münchener Bach-Orchester, Karl Richter & Thomas Stewart"    REM COMPOSER "George Frideric Handel"    INDEX 01 48:23:00  TRACK 23 AUDIO    TITLE "Scene 3. Air (Israelitish Woman): “Let the bright Seraphim in burning row”"    PERFORMER "Münchener Bach-Orchester, Karl Richter & Helen Donath (Sheila Armstrong?)"    REM COMPOSER "George Frideric Handel"    INDEX 01 48:46:45  TRACK 24 AUDIO    TITLE "Scene 3. Chorus of Israelites: “Let their celestial concerts all unite”"    PERFORMER "Münchener Bach-Chor, Münchener Bach-Orchester, Karl Richter"    REM COMPOSER "George Frideric Handel"    INDEX 01 52:01:00
Вы не можете начинать темы
Вы не можете отвечать на сообщения
Вы не можете редактировать свои сообщения
Вы не можете удалять свои сообщения
Вы не можете голосовать в опросах
Вы не можете прикреплять файлы к сообщениям
Вы можете скачивать файлы
!ВНИМАНИЕ!

Сайт не предоставляет электронные версии произведений, а занимается лишь коллекционированием и каталогизацией ссылок, присылаемых и публикуемых на форуме нашими читателями. Если вы являетесь правообладателем какого-либо представленного материала и не желаете, чтобы ссылка на него находилась в нашем каталоге, свяжитесь с нами, и мы незамедлительно удалим ее. Файлы для обмена на трекере предоставлены пользователями сайта, и администрация не несет ответственности за их содержание. Просьба не заливать файлы, защищенные авторскими правами, а также файлы нелегального содержания!

Искали программы, игры, дополнения, музыка mp3, аниме, аудио книги, журналы? Добро пожаловать на свободный торрент трекер Torrents, у нас можно скачать бесплатно, без смс и регистрации и прочих ограничений лучшие, отборные сборки программ, игр. Скачать торрентом не составит труда даже не опытному пользователю. Раздачи ежедневно обновляются, только лучшие и качественные раздачи, подробные описания и скриншоты. Огромная коллекция программ для работы со звуком, графикой, дизайном, а так же множество плагинов и инструментов к ним с подробной инструкцией и рекомендациями. Прошивки для навигаторов, карты. Разнообразные игры, для Windows, Linux. В коллекцие есть и старые игры любых жанров, Rpg, Action, Shooter, strategy Множество дополнений, модификаций, сценариев для популярных игр в жанре экш, рпг, гонки, стратегии, логические игры. Множество аддонов и сценариев для Microsoft Flight Simulator Большая коллекция книг, учебников. Если нет возможности купить печатное издание - смело скачивайте цифровую версию книги или, быть может, журнала. Не любите читать - можно загрузить бесплатно аудикнигу. Для веб дизайнеров и программистов так же найдется множество специализированного софта, таких как: редакторы с подсветкой, среды программирования, компоненты, системы управления базами данных, разнообразные скрипты и шаблоны. Не так давно у нас появился материал для автолюбителей и владельцев мото - оригинальные и неоригинальные каталоги запчастей, книги и журналы по ремонту и обслуживанию, видеоуроки, статьи по чип тюнингу, прошивкам. Процедура получения контента элементарная, достаточно просто скачать торрент файл и добавить его в загрузку в вашем торрент клиенте. Если у вас нет специального торрент клиента, вы можете его скачать у нас.